<?xml version="1.0" standalone="no"?>
<!DOCTYPE svg PUBLIC "-//W3C//DTD SVG 1.1//EN" "http://www.w3.org/Graphics/SVG/1.1/DTD/svg11.dtd" >
<svg xmlns="http://www.w3.org/2000/svg">
<metadata></metadata>
<defs>
<font id="carrois_gothicregular" horiz-adv-x="540" >
<font-face units-per-em="1000" ascent="800" descent="-200" />
<missing-glyph horiz-adv-x="300" />
<glyph horiz-adv-x="0" />
<glyph horiz-adv-x="0" />
<glyph horiz-adv-x="0" />
<glyph horiz-adv-x="0" />
<glyph horiz-adv-x="0" />
<glyph horiz-adv-x="0" />
<glyph horiz-adv-x="0" />
<glyph horiz-adv-x="0" />
<glyph unicode="&#x9;" horiz-adv-x="0" />
<glyph unicode="&#xd;" horiz-adv-x="300" />
<glyph horiz-adv-x="0" />
<glyph horiz-adv-x="0" />
<glyph horiz-adv-x="0" />
<glyph horiz-adv-x="0" />
<glyph horiz-adv-x="0" />
<glyph horiz-adv-x="0" />
<glyph horiz-adv-x="0" />
<glyph horiz-adv-x="0" />
<glyph horiz-adv-x="0" />
<glyph horiz-adv-x="0" />
<glyph unicode=" "  horiz-adv-x="300" />
<glyph unicode="&#x09;" horiz-adv-x="300" />
<glyph unicode="&#xa0;" horiz-adv-x="300" />
<glyph unicode="!" horiz-adv-x="270" d="M98 240l-10 480h90l-10 -480h-70zM85 0v100h100v-100h-100z" />
<glyph unicode="&#x22;" horiz-adv-x="400" d="M150 502h-50l-25 140v93h100v-92zM300 502h-50l-25 140v93h100v-92z" />
<glyph unicode="#" horiz-adv-x="575" d="M498 197h-84l-17 -197h-71l17 197h-142l-17 -197h-71l17 197h-79l4 61h80l17 189h-81l6 61h80l17 192h71l-17 -192h142l17 192h71l-17 -192h83l-6 -61h-82l-17 -189h83zM206 258h142l17 189h-142z" />
<glyph unicode="$" d="M280 644q-24 0 -46 -6t-38.5 -19t-26.5 -33.5t-10 -48.5q0 -21 5.5 -38.5t21 -33.5t43.5 -31.5t72 -31.5q36 -13 70.5 -30t60.5 -42.5t42 -61.5t16 -86q0 -35 -12 -67.5t-34.5 -58.5t-55 -44t-72.5 -24v-123h-72v122q-42 5 -74.5 21t-56.5 38.5t-39.5 48.5t-22.5 51 l78 14q6 -20 17 -39t29 -34t44 -24.5t61 -9.5q20 0 42.5 6.5t41 21.5t31 38t12.5 56q0 38 -11 62.5t-33.5 42.5t-57 33t-81.5 34q-78 31 -112 77.5t-34 103.5q0 74 43.5 122t122.5 58v112h72v-113q35 -5 63 -19.5t48.5 -34.5t35 -44.5t22.5 -49.5l-74 -14q-12 39 -43.5 69 t-87.5 30z" />
<glyph unicode="%" horiz-adv-x="740" d="M255 -23l-62 23l286 722l63 -22zM60 541q0 42 11 74t30 53t43 31.5t51 10.5t51.5 -10.5t43 -31.5t30 -53t11.5 -74t-11.5 -73.5t-30.5 -52.5t-43.5 -31t-50.5 -10t-50.5 10t-43.5 31t-30 52.5t-11 73.5zM130 541q0 -60 18 -86t47 -26t48 26t19 86t-19 86t-48 26t-47 -26 t-18 -86zM409 159q0 42 11 74t30 53t43 31.5t51 10.5t51.5 -10.5t43 -31.5t30 -53t11.5 -74t-11.5 -73.5t-30.5 -52.5t-43.5 -31t-50.5 -10t-50.5 10t-43.5 31t-30 52.5t-11 73.5zM479 159q0 -60 18 -86t47 -26t48 26t19 86t-19 86t-48 26t-47 -26t-18 -86z" />
<glyph unicode="&#x26;" horiz-adv-x="697" d="M600 349q-6 -59 -20.5 -112t-38.5 -98l117 -118l-54 -47l-104 105q-37 -42 -89 -65.5t-122 -23.5q-45 0 -83.5 14t-66.5 38.5t-43.5 58t-15.5 72.5q0 35 9 62.5t26.5 51t42 43.5t55.5 40q-22 22 -40.5 42.5t-32.5 42t-22 44.5t-8 49q0 30 11 59.5t33.5 52t56.5 36.5 t79 14q43 0 76 -12t56 -32.5t35 -47t12 -54.5q0 -34 -10 -61t-28.5 -50.5t-46.5 -45t-64 -43.5l169 -172q17 37 26.5 78.5t12.5 86.5zM301 55q48 0 85 20t64 54l-192 196q-26 -17 -44 -33t-29 -33t-16.5 -36t-5.5 -43q0 -22 7 -44.5t23.5 -40.5t43 -29t64.5 -11zM188 553 q0 -17 4.5 -31.5t15 -31t27 -36t41.5 -45.5q35 22 58 40.5t36.5 36t19 35.5t5.5 40q0 39 -30.5 63.5t-72.5 24.5q-51 0 -77.5 -25t-26.5 -71z" />
<glyph unicode="'" horiz-adv-x="250" d="M150 482h-50l-25 160v93h100v-92z" />
<glyph unicode="(" horiz-adv-x="340" d="M75 330q0 91 12.5 162.5t33 129t46.5 104t54 89.5l54 -25q-25 -46 -47.5 -93t-39.5 -101t-27 -119t-10 -147q0 -83 10 -147.5t27 -118.5t39.5 -101t47.5 -93l-54 -25q-28 43 -54 89.5t-46.5 104t-33 128.5t-12.5 163z" />
<glyph unicode=")" horiz-adv-x="340" d="M265 330q0 -92 -12.5 -163t-33 -128.5t-46.5 -104t-54 -89.5l-54 25q25 46 47.5 93t39.5 101t27 118.5t10 147.5q0 82 -10 147t-27 119t-39.5 101t-47.5 93l54 25q28 -43 54 -89.5t46.5 -104t33 -129t12.5 -162.5z" />
<glyph unicode="*" horiz-adv-x="470" d="M258 584l139 60l23 -72l-145 -32l102 -114l-65 -42l-77 129l-77 -130l-64 43l101 114l-146 31l24 72l138 -60l-16 152h80z" />
<glyph unicode="+" d="M231 288h-166v70h166v163h78v-163h166v-70h-166v-166h-78v166z" />
<glyph unicode="," horiz-adv-x="230" d="M95 -152h-56l26 152v100h100v-99z" />
<glyph unicode="-" horiz-adv-x="425" d="M60 287v72h305v-72h-305z" />
<glyph unicode="." horiz-adv-x="230" d="M65 0v100h100v-100h-100z" />
<glyph unicode="/" horiz-adv-x="265" d="M208 720l69 -15l-220 -805l-69 15z" />
<glyph unicode="0" d="M141 344q0 -82 9 -138t26 -90t41 -48.5t54 -14.5t54 14.5t41 48.5t26 90t9 138t-9 138t-26 90.5t-41 49.5t-54 15t-54 -15t-41 -49.5t-26 -90.5t-9 -138zM483 344q0 -97 -15 -164.5t-42.5 -109.5t-67 -61t-87.5 -19t-87.5 17.5t-67 58.5t-42.5 109t-15 169q0 97 15 165 t42.5 110.5t67 61.5t87.5 19t87.5 -18t67 -59.5t42.5 -109.5t15 -169z" />
<glyph unicode="1" d="M135 0v69h133v555l-137 -84l-37 57l168 103h85v-631h109v-69h-321z" />
<glyph unicode="2" d="M74 555q25 73 77 114t131 41q39 0 73.5 -10.5t60.5 -32.5t41 -56.5t15 -82.5q0 -31 -7 -60t-22.5 -59.5t-41 -65t-61.5 -76.5l-168 -196h291v-71h-380v79l206 245q27 33 46.5 59t31.5 49.5t17.5 46t5.5 49.5q0 54 -26 86t-86 32q-48 0 -81 -29t-47 -83z" />
<glyph unicode="3" d="M74 593q25 59 77.5 88t111.5 29q37 0 71 -11t59 -33t40 -55t15 -76q0 -33 -10.5 -60t-28.5 -48t-41.5 -34.5t-49.5 -18.5q30 -4 58 -16t49 -33.5t33 -52t12 -69.5q0 -53 -19 -93t-49 -66.5t-67.5 -40t-75.5 -13.5q-64 0 -112 26.5t-77 75.5l63 36q16 -28 45 -51.5 t80 -23.5q23 0 46 8t42 25.5t30.5 45.5t11.5 68q0 41 -11 67t-29.5 41t-43 20.5t-50.5 5.5h-44v67h47q46 0 77.5 35t31.5 94q0 65 -29.5 92.5t-77.5 27.5q-46 0 -76.5 -26t-41.5 -57z" />
<glyph unicode="4" d="M389 444v-242h96v-65h-96v-137h-77v137h-241v72l149 499l74 -14l-145 -492h163v136l19 106h58z" />
<glyph unicode="5" d="M145 128q12 -30 40 -52t72 -22q19 0 42 7.5t42.5 27t32.5 53.5t13 88q0 45 -9 76t-25 49.5t-37.5 27t-46.5 8.5q-24 0 -51 -10t-54 -38l-66 7l19 350h314v-64h-242l-12 -223q23 16 51.5 26.5t61.5 10.5q36 0 68.5 -10.5t57.5 -36t39.5 -68.5t14.5 -109q0 -52 -15.5 -95 t-43.5 -74.5t-67.5 -49t-87.5 -17.5q-70 0 -114.5 30t-67.5 78z" />
<glyph unicode="6" d="M450 663q-43 -13 -87 -35t-82.5 -55t-67.5 -79.5t-42 -109.5q26 28 59.5 44.5t75.5 16.5q44 0 76 -16.5t53 -46t31 -70.5t10 -91q0 -59 -16 -102t-43 -72t-62 -43t-73 -14q-104 0 -152 77t-48 218q0 102 31.5 177.5t81 128t110.5 84.5t120 48zM289 382q-40 0 -72 -20.5 t-55 -46.5v-23q0 -124 29.5 -181.5t91.5 -57.5q21 0 41.5 7t36 25.5t25 50t9.5 79.5q0 90 -28.5 128.5t-77.5 38.5z" />
<glyph unicode="7" d="M221 0h-88l262 630h-298v70h374v-80z" />
<glyph unicode="8" d="M54 177q0 42 13 75t33 57t43.5 40t43.5 25q-18 10 -36.5 23.5t-33.5 32.5t-24.5 43.5t-9.5 56.5q0 46 16 80t42 56.5t59.5 33t69.5 10.5t69.5 -9.5t59.5 -30t42 -53.5t16 -80q0 -30 -10 -55.5t-25.5 -45.5t-35.5 -35t-40 -25q27 -13 52 -30t44.5 -40.5t31.5 -53t12 -68.5 q0 -42 -15 -77.5t-43.5 -61.5t-68.5 -40.5t-89 -14.5q-50 0 -89.5 14.5t-68 40t-43.5 59.5t-15 73zM400 184q0 35 -13 59.5t-35 43t-52 33t-63 29.5q-19 -11 -36.5 -25.5t-31 -34t-21.5 -45.5t-8 -60q0 -29 9.5 -53t26.5 -41.5t41 -27.5t53 -10q58 0 94 35t36 97zM162 535 q0 -28 11.5 -48.5t30 -36t42 -27.5t47.5 -22q34 21 58.5 52.5t24.5 81.5q0 33 -8.5 55t-23 36t-34 20t-40.5 6t-40.5 -6.5t-34.5 -20.5t-24 -36t-9 -54z" />
<glyph unicode="9" d="M123 42q53 5 98.5 24.5t80.5 55.5t58.5 88t32.5 122q-26 -30 -62 -48.5t-79 -18.5q-42 0 -74 15.5t-53.5 44t-32.5 68t-11 86.5q0 58 16 101.5t43.5 72.5t63.5 43t76 14q104 0 151 -72.5t47 -213.5q0 -112 -28 -193.5t-75.5 -136t-110 -83t-131.5 -34.5zM269 328 q40 0 72.5 21t56.5 47v21q0 121 -28 176.5t-91 55.5q-21 0 -42 -8.5t-37.5 -28t-27 -50.5t-10.5 -77q0 -84 28.5 -120.5t78.5 -36.5z" />
<glyph unicode=":" horiz-adv-x="230" d="M65 0v100h100v-100h-100zM65 440v100h100v-100h-100z" />
<glyph unicode=";" horiz-adv-x="230" d="M65 440v100h100v-100h-100zM95 -152h-53l23 151v101h100v-99z" />
<glyph unicode="&#x3c;" d="M65 281v90l392 162l23 -69l-352 -139l352 -157l-23 -69z" />
<glyph unicode="=" d="M65 391v70h410v-70h-410zM65 191v70h410v-70h-410z" />
<glyph unicode="&#x3e;" d="M83 99l-23 69l352 157l-352 139l23 69l392 -162v-90z" />
<glyph unicode="?" horiz-adv-x="484" d="M57 594q20 69 71.5 105t122.5 36q81 0 128.5 -43t47.5 -118q0 -52 -21 -90t-49 -68l-72 -80v-116h-82v139l92 100q29 31 39 58t10 59q0 37 -22.5 65.5t-74.5 28.5q-48 0 -75 -28t-38 -68zM194 0v105h105v-105h-105z" />
<glyph unicode="@" horiz-adv-x="920" d="M654 98q-25 0 -43 7.5t-30.5 19.5t-19 27.5t-8.5 31.5q-14 -34 -46 -59t-85 -25q-27 0 -52 9.5t-44.5 31.5t-31 56.5t-11.5 84.5q0 46 10.5 96t35 91t64 67.5t97.5 26.5q44 0 76 -11.5t61 -37.5l-30 -240q-2 -11 -2.5 -22t-0.5 -19q0 -45 14.5 -63.5t42.5 -18.5 q21 0 41 14t35.5 41.5t24.5 68.5t9 95q0 146 -69.5 227t-205.5 81q-54 0 -112 -21.5t-106 -66t-78.5 -114t-30.5 -165.5q0 -85 24.5 -149t66 -106.5t96 -64t115.5 -21.5q25 0 44.5 1.5t36 4t32 6t32.5 7.5l16 -57q-31 -8 -67 -15.5t-92 -7.5q-83 0 -153 27t-121 78.5 t-80 126.5t-29 171q0 117 39 197.5t98.5 130.5t131 72.5t137.5 22.5q79 0 144 -22.5t111.5 -67.5t72.5 -113.5t26 -160.5q0 -49 -12 -98t-35.5 -88t-58.5 -63t-80 -24zM441 157q30 0 53 24.5t31 89.5l26 219q-10 9 -22 13.5t-33 4.5q-42 0 -68.5 -23.5t-41 -58.5t-20 -75.5 t-5.5 -75.5q0 -36 6.5 -59t18 -36t26 -18t29.5 -5z" />
<glyph unicode="A" horiz-adv-x="553" d="M453 0l-53 193h-252l-54 -193h-84l215 720h104l214 -720h-90zM167 258h215l-106 384z" />
<glyph unicode="B" horiz-adv-x="569" d="M269 720q112 0 164.5 -47t52.5 -130q0 -28 -8.5 -53.5t-24 -46.5t-37 -36.5t-46.5 -22.5q27 -4 54 -16t48 -33.5t34 -53.5t13 -77q0 -55 -20.5 -94t-54.5 -63.5t-77.5 -35.5t-89.5 -11h-187v720h179zM175 351v-286h100q30 0 57.5 7t49.5 23.5t35 43t13 65.5 q0 72 -40 109.5t-119 37.5h-96zM175 661v-249h92q69 0 101.5 34t32.5 94q0 64 -36.5 92.5t-97.5 28.5h-92z" />
<glyph unicode="C" horiz-adv-x="582" d="M531 119q-28 -60 -77 -97t-129 -37q-40 0 -84.5 15.5t-82.5 57.5t-63 115t-25 187q0 112 24 185t61.5 115t82.5 58.5t88 16.5q39 0 70.5 -10t55.5 -26.5t41.5 -38.5t28.5 -46l-75 -29q-16 41 -44.5 62t-76.5 21q-34 0 -64.5 -14.5t-53.5 -50t-36.5 -94.5t-13.5 -149 q0 -89 14 -148t37.5 -94t54 -50t63.5 -15q55 0 84 27.5t47 69.5z" />
<glyph unicode="D" horiz-adv-x="611" d="M218 720q71 0 130.5 -16.5t102 -57.5t66.5 -110.5t24 -175.5q0 -103 -23.5 -172t-66.5 -111t-102 -59.5t-129 -17.5h-130v720h128zM175 657v-591h44q61 0 105.5 15.5t73.5 50.5t43 91t14 137q0 155 -57 226t-181 71h-42z" />
<glyph unicode="E" horiz-adv-x="500" d="M410 333h-235v-265h265v-68h-350v720h350v-68h-265v-253h235v-66z" />
<glyph unicode="F" horiz-adv-x="470" d="M395 312h-220v-312h-85v720h345v-68h-260v-272h220v-68z" />
<glyph unicode="G" horiz-adv-x="598" d="M521 0h-66l-5 45q-27 -31 -63.5 -45t-76.5 -14q-50 0 -93.5 19t-76 62.5t-51.5 115.5t-19 178q0 107 21.5 179t57.5 115.5t82.5 62t96.5 18.5q74 0 120 -29.5t72 -83.5l-72 -33q-17 38 -44 59.5t-73 21.5q-39 0 -71.5 -17t-55 -54t-35 -96t-12.5 -143q0 -89 11.5 -148 t33.5 -95t52 -51t68 -15q83 0 123 60v217h-123v68h199v-397z" />
<glyph unicode="H" horiz-adv-x="620" d="M530 720v-720h-85v330h-270v-330h-85v720h85v-322h270v322h85z" />
<glyph unicode="I" horiz-adv-x="265" d="M175 720v-720h-85v720h85z" />
<glyph unicode="J" horiz-adv-x="408" d="M238 720h85v-555q0 -88 -45.5 -133.5t-123.5 -45.5q-55 0 -93 23.5t-56 54.5l65 44q12 -24 34.5 -38t48.5 -14q40 0 62.5 26t22.5 88v550z" />
<glyph unicode="K" horiz-adv-x="543" d="M424 0l-249 335v-335h-85v720h85v-314l226 314h95l-251 -343l283 -377h-104z" />
<glyph unicode="L" horiz-adv-x="472" d="M175 720v-646h277v-74h-362v720h85z" />
<glyph unicode="M" horiz-adv-x="747" d="M341 95l-170 477v-572h-81v720h111l180 -516l166 516h110v-720h-84v572l-157 -477h-75z" />
<glyph unicode="N" horiz-adv-x="601" d="M511 720v-720h-110l-234 608v-608h-77v720h113l233 -599v599h75z" />
<glyph unicode="O" horiz-adv-x="658" d="M70 360q0 105 22 176.5t58 115.5t82.5 63.5t96.5 19.5t96.5 -19.5t82.5 -63.5t58 -115.5t22 -176.5t-22 -176.5t-58 -115.5t-83 -63.5t-96 -19.5q-50 0 -96.5 19.5t-82.5 63.5t-58 115.5t-22 176.5zM157 360q0 -152 43 -231t129 -79t129 79t43 231t-43 231t-129 79 t-129 -79t-43 -231z" />
<glyph unicode="P" horiz-adv-x="521" d="M252 720q55 0 101 -13.5t79 -42t51 -71.5t18 -102t-18.5 -102.5t-51.5 -72t-79 -42.5t-101 -14h-76v-260h-85v720h162zM175 655v-330h75q164 0 164 166q0 78 -39.5 121t-120.5 43h-79z" />
<glyph unicode="Q" horiz-adv-x="658" d="M70 360q0 105 22 176.5t58 115.5t82.5 63.5t96.5 19.5t96.5 -19.5t82.5 -63.5t58 -115.5t22 -176.5q0 -83 -14 -144.5t-38.5 -105t-57 -70.5t-69.5 -40l147 -88l-57 -80l-179 153q-48 2 -93.5 22.5t-80 64.5t-55.5 115t-21 173zM157 360q0 -152 43 -231t129 -79t129 79 t43 231t-43 231t-129 79t-129 -79t-43 -231z" />
<glyph unicode="R" horiz-adv-x="557" d="M441 0l-161 282h-105v-282h-85v720h150q117 0 183 -53.5t66 -168.5q0 -41 -10 -72.5t-27 -55.5t-40 -41t-49 -28l179 -301h-101zM175 655v-308h67q78 0 119 37.5t41 113.5t-37 116.5t-126 40.5h-64z" />
<glyph unicode="S" horiz-adv-x="548" d="M284 669q-56 0 -92 -26.5t-36 -83.5q0 -26 7 -46t23.5 -36t43.5 -30.5t67 -29.5q39 -15 74 -33t61.5 -44t42 -63t15.5 -90q0 -41 -16.5 -78t-46 -64.5t-70.5 -43.5t-90 -16q-50 0 -87.5 12.5t-64.5 33t-44.5 46.5t-27.5 54l72 27q7 -20 18.5 -39t29.5 -33.5t43.5 -23.5 t61.5 -9q24 0 48 6.5t43.5 21.5t31.5 40t12 61q0 38 -9.5 63t-30 44t-53.5 34t-79 34q-81 33 -119.5 80t-38.5 116q0 38 14 71.5t41 58t65.5 38.5t88.5 14q85 0 133 -34.5t74 -93.5l-74 -26q-17 42 -47 65t-84 23z" />
<glyph unicode="T" horiz-adv-x="475" d="M455 646h-176v-646h-85v646h-174v74h435v-74z" />
<glyph unicode="U" horiz-adv-x="609" d="M170 720v-510q0 -75 31 -116t104 -41t105.5 41t32.5 116v510h81v-511q0 -110 -56.5 -167t-162.5 -57t-163 57t-57 167v511h85z" />
<glyph unicode="V" horiz-adv-x="525" d="M515 720l-194 -720h-114l-197 720h88l167 -659l172 659h78z" />
<glyph unicode="W" horiz-adv-x="759" d="M734 720l-120 -720h-102l-127 536l-131 -536h-109l-120 720h87l95 -631l127 538h109l119 -536l94 629h78z" />
<glyph unicode="X" horiz-adv-x="550" d="M320 375l195 -375h-97l-144 292l-152 -292h-87l197 372l-179 348h95l133 -268l139 268h88z" />
<glyph unicode="Y" horiz-adv-x="512" d="M502 720l-202 -432v-288h-84v288l-206 432h93l157 -344l159 344h83z" />
<glyph unicode="Z" horiz-adv-x="500" d="M129 67h311v-67h-400v75l322 578h-299v67h387v-72z" />
<glyph unicode="[" horiz-adv-x="340" d="M278 -170h-203v980h203v-68h-125v-844h125v-68z" />
<glyph unicode="\" horiz-adv-x="265" d="M277 -85l-69 -15l-220 805l69 15z" />
<glyph unicode="]" horiz-adv-x="340" d="M62 -102h125v844h-125v68h203v-980h-203v68z" />
<glyph unicode="^" horiz-adv-x="500" d="M207 720h90l163 -320h-84l-124 258l-128 -258h-84z" />
<glyph unicode="_" horiz-adv-x="480" d="M-2 -120v68h484v-68h-484z" />
<glyph unicode="`" horiz-adv-x="270" d="M250 631l-34 -43l-166 98l55 69z" />
<glyph unicode="a" horiz-adv-x="506" d="M357 0l-4 60q-22 -30 -57.5 -50t-90.5 -20q-29 0 -58.5 8.5t-53 27t-38.5 47.5t-15 71q0 88 72.5 139t233.5 54v45q0 48 -23.5 79.5t-79.5 31.5q-43 0 -71.5 -21.5t-43.5 -62.5l-73 28q24 54 72 86t118 32q46 0 80 -12.5t56.5 -34t33.5 -51t11 -63.5v-394h-69zM227 54 q38 0 67 17t52 43v160q-115 -2 -169 -32.5t-54 -91.5q0 -51 30.5 -73.5t73.5 -22.5z" />
<glyph unicode="b" horiz-adv-x="528" d="M80 0v735h80v-253q26 34 60 53.5t77 19.5q36 0 67 -14.5t53.5 -46.5t35 -84.5t12.5 -128.5q0 -142 -50 -216.5t-144 -74.5q-38 0 -68 14t-50 39l-3 -43h-70zM278 489q-35 0 -63.5 -19.5t-54.5 -54.5v-317q23 -25 47.5 -36.5t47.5 -11.5q29 0 52 12.5t39.5 40.5t25.5 73 t9 110q0 60 -7 99t-20.5 62t-32.5 32.5t-43 9.5z" />
<glyph unicode="c" horiz-adv-x="509" d="M147 271q0 -114 37 -166t99 -52q43 0 71 20.5t54 63.5l65 -42q-29 -46 -76.5 -77t-114.5 -31q-45 0 -84.5 15.5t-69.5 49.5t-47.5 87.5t-17.5 129.5q0 74 17 128t47 89t70.5 52t87.5 17q57 0 99 -19.5t78 -67.5l-62 -45q-26 38 -52.5 53t-62.5 15q-62 0 -100 -53 t-38 -167z" />
<glyph unicode="d" horiz-adv-x="533" d="M63 269q0 142 52.5 214t146.5 72q71 0 111 -41v221h80v-735h-70l-4 68q-26 -37 -62 -57.5t-81 -20.5q-36 0 -68 15t-55 48.5t-36.5 86.5t-13.5 129zM255 56q35 0 63.5 18t54.5 52v324q-23 24 -47.5 34.5t-47.5 10.5q-29 0 -53 -12t-41.5 -39t-27 -71t-9.5 -109 q0 -60 8 -100t22 -64t34 -34t44 -10z" />
<glyph unicode="e" horiz-adv-x="534" d="M472 91q-26 -41 -73 -71t-117 -30q-49 0 -89 16.5t-69 50.5t-45 85.5t-16 122.5q0 76 16.5 131t46 90.5t69 52t84.5 16.5q50 0 87.5 -16.5t62.5 -53t37.5 -93.5t12.5 -138h-334q1 -57 12.5 -95.5t30.5 -61.5t44.5 -33t54.5 -10q24 0 43.5 7.5t34.5 18.5t26 24.5t18 25.5z M279 493q-56 0 -90 -42t-42 -133h249q-2 49 -10.5 82.5t-23.5 54t-35.5 29.5t-47.5 9z" />
<glyph unicode="f" horiz-adv-x="312" d="M308 656q-32 21 -67 21q-37 0 -51.5 -20.5t-14.5 -55.5v-61h125v-65h-125v-475h-80v475h-85l10 65h75v63q0 61 35.5 100.5t110.5 39.5q29 0 56.5 -9.5t48.5 -23.5z" />
<glyph unicode="g" horiz-adv-x="509" d="M468 515h-118q41 -17 67.5 -52t26.5 -92q0 -47 -17.5 -81t-45.5 -56t-63 -32.5t-69 -10.5q-21 0 -43 4t-43 12q-22 -19 -22 -37q0 -9 3.5 -17t14.5 -14t33 -10.5t60 -6.5q51 -3 92 -11.5t70 -26.5t44.5 -46t15.5 -70q0 -31 -14.5 -60.5t-43 -53t-71.5 -37.5t-100 -14 q-102 0 -156 39t-54 103q0 45 24 77.5t62 52.5q-26 13 -36.5 32t-10.5 42q0 29 14.5 48t37.5 30q-32 22 -53.5 57.5t-21.5 86.5q0 46 17.5 80.5t46.5 57.5t65.5 34.5t74.5 11.5l203 37zM131 371q0 -56 32 -89t86 -33t84.5 33t30.5 89t-28.5 91t-81.5 35q-27 0 -49.5 -9 t-39 -25.5t-25.5 -40t-9 -51.5zM220 52q-16 1 -29 3t-25 4q-23 -19 -37 -42.5t-14 -58.5q0 -19 6.5 -37t21.5 -32.5t39.5 -23t61.5 -8.5q43 0 71 11t44.5 27t23 34.5t6.5 33.5q0 19 -6.5 34t-24.5 25.5t-51 18t-87 11.5z" />
<glyph unicode="h" horiz-adv-x="548" d="M80 0v735h80v-262q32 44 72.5 63t78.5 19q35 0 64 -10t49.5 -32t32 -58t11.5 -88v-367h-80v354q0 39 -6 65.5t-17.5 42t-29.5 22t-42 6.5q-40 0 -73 -24t-60 -66v-400h-80z" />
<glyph unicode="i" horiz-adv-x="240" d="M74 638v97h92v-97h-92zM80 0v540h80v-540h-80z" />
<glyph unicode="j" horiz-adv-x="240" d="M-44 -108q31 -13 56 -13q35 0 51.5 21.5t16.5 70.5v569h80v-574q0 -31 -8.5 -59t-25 -49t-41.5 -33.5t-59 -12.5q-26 0 -49.5 4t-44.5 14zM74 638v97h92v-97h-92z" />
<glyph unicode="k" horiz-adv-x="505" d="M80 0v735h80v-420l198 225h104l-217 -235l250 -305h-102l-233 285v-285h-80z" />
<glyph unicode="l" horiz-adv-x="249" d="M89 670h-74l10 65h144v-735h-80v670z" />
<glyph unicode="m" horiz-adv-x="825" d="M80 0v540h68l5 -63q28 42 65.5 60t75.5 18q49 0 84.5 -19.5t55.5 -65.5q29 45 70.5 65t81.5 20q35 0 64 -8.5t50 -28.5t32.5 -54t11.5 -85v-379h-80v364q0 37 -6 61.5t-17.5 39t-29.5 20t-42 5.5q-38 0 -66 -22t-51 -59v-409h-80v374q0 116 -95 116q-38 0 -66 -22 t-51 -59v-409h-80z" />
<glyph unicode="n" horiz-adv-x="548" d="M80 0v540h68l6 -71q32 47 74.5 66.5t82.5 19.5q35 0 64 -9.5t49.5 -31.5t32 -57.5t11.5 -87.5v-369h-80v354q0 39 -6 65.5t-17.5 42t-29.5 22t-42 6.5q-40 0 -73 -24t-60 -66v-400h-80z" />
<glyph unicode="o" horiz-adv-x="565" d="M63 270q0 83 19.5 138t51 87.5t71 46t78.5 13.5q38 0 77 -13t70.5 -45.5t51.5 -87.5t20 -139t-19.5 -138t-50.5 -85.5t-70.5 -44t-78.5 -12.5q-38 0 -77.5 12.5t-71 44.5t-51.5 86t-20 137zM147 270q0 -114 37.5 -166t99.5 -52t98.5 51t36.5 167q0 58 -10 100t-28 69.5 t-43 40.5t-55 13q-59 0 -97.5 -54.5t-38.5 -168.5z" />
<glyph unicode="p" horiz-adv-x="528" d="M80 -180v720h68l5 -64q26 37 62.5 58t81.5 21q36 0 67 -14.5t53.5 -46.5t35 -84.5t12.5 -128.5q0 -142 -50 -216.5t-144 -74.5q-35 0 -63 12t-48 33v-215h-80zM278 489q-35 0 -63.5 -19.5t-54.5 -54.5v-317q23 -25 47.5 -36.5t47.5 -11.5q29 0 52 12.5t39.5 40.5t25.5 73 t9 110q0 60 -7 99t-20.5 62t-32.5 32.5t-43 9.5z" />
<glyph unicode="q" horiz-adv-x="533" d="M63 269q0 142 51 214t145 72q36 0 67 -13.5t54 -42.5l3 41h70v-720h-80v240q-26 -33 -60.5 -51.5t-76.5 -18.5q-36 0 -68 15t-55 48.5t-36.5 86.5t-13.5 129zM255 56q35 0 63.5 18t54.5 52v319q-23 26 -49 38t-49 12q-29 0 -52.5 -12t-40.5 -39t-26 -71t-9 -109 q0 -60 8 -100t22 -64t34 -34t44 -10z" />
<glyph unicode="r" horiz-adv-x="332" d="M80 0v540h73l3 -76q20 45 51 67t69 22q14 0 24 -1t24 -6l-20 -75q-9 2 -18.5 3.5t-21.5 1.5q-20 0 -35.5 -8.5t-28 -23.5t-22.5 -34.5t-18 -40.5v-369h-80z" />
<glyph unicode="s" horiz-adv-x="457" d="M217 -10q-67 0 -112.5 26t-72.5 77l70 36q14 -32 45.5 -52.5t71.5 -20.5q20 0 39 5.5t34 17t24 28t9 39.5q0 29 -11.5 46.5t-30.5 29t-43.5 18.5t-49.5 15q-71 22 -104 58.5t-33 90.5q0 37 14 65t38 47t55 29t65 10q66 0 111.5 -27t65.5 -75l-71 -30q-14 33 -38.5 51.5 t-68.5 18.5q-18 0 -34 -5t-29 -14.5t-20.5 -24.5t-7.5 -36t7.5 -36t23 -26t40 -20t57.5 -19q66 -20 105.5 -56.5t39.5 -101.5q0 -37 -14 -67t-39 -51.5t-60 -33.5t-76 -12z" />
<glyph unicode="t" horiz-adv-x="334" d="M319 10q-38 -16 -85 -16q-66 0 -100 36t-34 99v346h-85l10 65h76l5 130h74v-130h116v-65h-116v-342q0 -40 18 -56t49 -16q15 0 25.5 2.5t26.5 7.5z" />
<glyph unicode="u" horiz-adv-x="536" d="M456 540v-540h-70l-4 64q-23 -35 -58 -54.5t-76 -19.5q-36 0 -67 9.5t-53.5 32t-35 59.5t-12.5 91v358h80v-352q0 -40 7.5 -65.5t20.5 -40.5t31.5 -21t41.5 -6q37 0 64.5 21t50.5 62v402h80z" />
<glyph unicode="v" horiz-adv-x="465" d="M455 540l-168 -540h-111l-166 540h86l137 -476l140 476h82z" />
<glyph unicode="w" horiz-adv-x="720" d="M700 540l-132 -540h-100l-107 450l-106 -450h-103l-132 540h82l104 -457l106 457h103l105 -455l101 455h79z" />
<glyph unicode="x" horiz-adv-x="500" d="M290 289l190 -289h-98l-139 223l-138 -223h-85l181 284l-168 256h96l119 -193l117 193h82z" />
<glyph unicode="y" horiz-adv-x="458" d="M295 -3q-12 -44 -24.5 -78t-29.5 -57t-41 -35.5t-59 -12.5q-23 0 -45.5 7t-36.5 17l28 53q28 -15 52 -15q16 0 27.5 6t20.5 20.5t16.5 38.5t16.5 59h-35l-175 540h84l146 -482l131 482h77z" />
<glyph unicode="z" horiz-adv-x="449" d="M127 71h262v-71h-349v82l276 388h-257v70h340v-82z" />
<glyph unicode="{" horiz-adv-x="340" d="M34 358q36 0 57.5 20t21.5 68v197q0 42 9 73.5t29 52.5t53.5 31t82.5 10v-60q-59 0 -79 -20t-20 -72v-190q0 -66 -20.5 -99.5t-58.5 -47.5q38 -14 58.5 -48t20.5 -100v-191q0 -26 4.5 -44t15.5 -28.5t30 -15t49 -4.5v-60q-49 0 -82.5 10t-53.5 31t-29 52.5t-9 73.5v198 q0 48 -21.5 68t-57.5 20v75z" />
<glyph unicode="|" horiz-adv-x="320" d="M201 800v-920h-82v920h82z" />
<glyph unicode="}" horiz-adv-x="340" d="M306 283q-36 0 -57.5 -20t-21.5 -68v-198q0 -42 -9 -73.5t-29 -52.5t-53.5 -31t-82.5 -10v60q30 0 49 4.5t30 15t15.5 28.5t4.5 44v191q0 66 20.5 100t58.5 48q-38 14 -58.5 47.5t-20.5 99.5v190q0 52 -20 72t-79 20v60q49 0 82.5 -10t53.5 -31t29 -52.5t9 -73.5v-197 q0 -48 21.5 -68t57.5 -20v-75z" />
<glyph unicode="~" horiz-adv-x="560" d="M375 259q-35 0 -60.5 7.5t-46.5 16.5t-40.5 16.5t-43.5 7.5q-31 0 -51.5 -12.5t-42.5 -32.5l-50 53q35 34 72 50.5t72 16.5t60.5 -7.5t46.5 -16.5t40.5 -16.5t43.5 -7.5q31 0 51.5 12.5t42.5 32.5l50 -53q-35 -34 -72 -50.5t-72 -16.5z" />
<glyph unicode="&#xa1;" horiz-adv-x="270" d="M172 300l10 -480h-90l10 480h70zM185 540v-100h-100v100h100z" />
<glyph unicode="&#xa2;" d="M147 271q0 -114 37 -166t99 -52q43 0 71 20.5t54 63.5l65 -42q-26 -40 -64.5 -68.5t-92.5 -36.5v-125h-72v125q-38 6 -71 25t-57.5 52.5t-38.5 83.5t-14 118q0 65 13.5 115t38 84.5t57.5 55t72 27.5v139h72v-137q45 -5 80 -24.5t66 -60.5l-62 -45q-26 38 -52.5 53 t-62.5 15q-62 0 -100 -53t-38 -167z" />
<glyph unicode="&#xa3;" d="M331 648q-44 0 -72 -31.5t-28 -97.5v-105h196v-60h-196v-182q0 -37 -12 -63.5t-38 -42.5h291v-66h-412v66h7q35 2 58 26t23 74v188h-78v60h78v107q0 49 15 84.5t40.5 58.5t58.5 34.5t69 11.5q71 0 114.5 -29.5t69.5 -88.5l-74 -26q-17 42 -41 62t-69 20z" />
<glyph unicode="&#xa4;" horiz-adv-x="600" d="M105 191q-19 28 -30 64.5t-11 84.5q0 45 10 81.5t28 65.5l-61 62l48 48l58 -58q33 28 73 41.5t79 13.5t79 -14t73 -43l60 60l48 -48l-64 -64q17 -29 27.5 -64.5t10.5 -80.5q0 -47 -10.5 -83t-29.5 -65l66 -65l-48 -48l-63 63q-33 -26 -72 -38.5t-77 -12.5t-77 12t-71 38 l-62 -62l-48 48zM134 340q0 -90 46.5 -139t119.5 -49t118 49t45 139q0 45 -12 80.5t-33.5 60t-52 38t-66.5 13.5t-66.5 -13.5t-52.5 -38t-34 -60t-12 -80.5z" />
<glyph unicode="&#xa5;" d="M236 0v155h-156v60h156v80h-156v59h120l-164 346h90l149 -356l151 356h82l-161 -345h113v-60h-149v-80h149v-60h-149v-155h-75z" />
<glyph unicode="&#xa6;" horiz-adv-x="320" d="M201 800v-380h-82v380h82zM201 260v-380h-82v380h82z" />
<glyph unicode="&#xa7;" d="M457 309q0 -52 -27.5 -85t-64.5 -53q72 -43 72 -121q0 -37 -15 -65t-40 -47t-56.5 -29t-65.5 -10q-66 0 -113 28t-67 76l71 30q14 -33 40 -52.5t70 -19.5q18 0 35 5t30.5 14.5t22 24.5t8.5 36t-6.5 35.5t-21.5 25.5t-39.5 20t-60.5 20q-66 20 -105.5 56.5t-39.5 101.5 q0 51 27 84t64 53q-71 41 -71 122q0 37 14 65t38 47t55 29t65 10q66 0 111.5 -27t65.5 -75l-71 -30q-14 33 -38.5 51.5t-68.5 18.5q-18 0 -34 -5t-29 -14.5t-20.5 -24.5t-7.5 -36t7.5 -35t23 -25t40 -20.5t57.5 -20.5t60 -25t45.5 -33t29 -43.5t10.5 -56.5zM237 411 q-35 -17 -55.5 -39t-20.5 -60q0 -28 11 -46t30 -30t44.5 -20.5t53.5 -16.5l3 -1q35 17 56 39t21 60q0 28 -11.5 46.5t-30.5 30.5t-44 20t-53 16z" />
<glyph unicode="&#xa8;" horiz-adv-x="360" d="M30 635v90h95v-90h-95zM235 635v90h95v-90h-95z" />
<glyph unicode="&#xa9;" horiz-adv-x="843" d="M551 239q-14 -36 -45.5 -60t-85.5 -24q-22 0 -47 8.5t-46 31.5t-34.5 63t-13.5 103q0 62 14 102t35.5 63t47.5 32t50 9q48 0 76.5 -25t43.5 -61l-59 -21q-4 12 -8.5 22t-11.5 17.5t-17 12t-25 4.5t-29 -7.5t-25 -25.5t-18 -47.5t-7 -74.5t7 -74.5t18.5 -47t25.5 -25 t29 -7.5q31 0 45 15.5t21 38.5zM783 360q0 -99 -32 -169.5t-83.5 -116.5t-116.5 -67.5t-130 -21.5t-130 21.5t-116.5 67.5t-83.5 116.5t-32 169.5t32 169.5t83.5 116.5t116.5 67.5t130 21.5t130 -21.5t116.5 -67.5t83.5 -116.5t32 -169.5zM715 360q0 81 -25 141.5t-66 100 t-94 59.5t-109 20t-109 -20t-94 -59.5t-66 -100t-25 -141.5t25 -141.5t66 -100t94 -59.5t109 -20t109 20t94 59.5t66 100t25 141.5z" />
<glyph unicode="&#xaa;" horiz-adv-x="475" d="M331 318l-7 50q-20 -25 -49.5 -40.5t-72.5 -15.5q-27 0 -50 8.5t-40 23.5t-26.5 36t-9.5 46q0 79 61 111t180 32v43q0 32 -18 51t-56 19q-24 0 -45.5 -14.5t-30.5 -41.5l-70 27q20 36 55.5 59t95.5 23q30 0 57 -7t46.5 -21.5t31 -36.5t11.5 -52v-300h-63zM95 0v70h305 v-70h-305zM228 366q27 0 50.5 12t38.5 29v112q-47 0 -78 -5.5t-49.5 -16.5t-26.5 -27.5t-8 -37.5q0 -20 6.5 -32.5t17 -20t23.5 -10.5t26 -3z" />
<glyph unicode="&#xab;" horiz-adv-x="490" d="M60 326l117 205l54 -20l-82 -188l72 -202l-54 -20zM239 326l117 205l54 -20l-82 -188l72 -202l-54 -20z" />
<glyph unicode="&#xac;" d="M402 141v147h-337v70h410v-217h-73z" />
<glyph unicode="&#xad;" horiz-adv-x="425" d="M60 287v72h305v-72h-305z" />
<glyph unicode="&#xae;" horiz-adv-x="614" d="M591 445q0 -78 -26.5 -133t-67.5 -90t-91.5 -51t-98.5 -16t-98.5 16t-91.5 51t-67.5 90t-26.5 133t26.5 133t67.5 90t91.5 51t98.5 16t98.5 -16t91.5 -51t67.5 -90t26.5 -133zM525 445q0 64 -18.5 109t-49 73.5t-70 41.5t-80.5 13t-80.5 -13t-70 -41.5t-49 -73.5 t-18.5 -109t18.5 -109t49 -73.5t70 -41.5t80.5 -13t80.5 13t70 41.5t49 73.5t18.5 109zM361 294l-57 112h-29v-112h-58v306h89q45 0 76.5 -24t31.5 -71q0 -31 -15 -53t-40 -33l68 -125h-66zM275 553v-99h32q20 0 32.5 14t12.5 37q0 22 -12.5 35t-35.5 13h-29z" />
<glyph unicode="&#xaf;" horiz-adv-x="330" d="M30 646v69h270v-69h-270z" />
<glyph unicode="&#xb0;" horiz-adv-x="355" d="M40 566q0 35 11.5 62t30.5 45t44 27.5t52 9.5t52 -9.5t44 -27.5t30 -45t11 -62t-11 -61.5t-30 -44.5t-44 -27t-52 -9t-52 9t-44 27t-30.5 44.5t-11.5 61.5zM108 566q0 -42 18.5 -66t51.5 -24t51.5 24t18.5 66t-18.5 67t-51.5 25t-51.5 -25t-18.5 -67z" />
<glyph unicode="&#xb1;" d="M231 288h-166v70h166v163h78v-163h166v-70h-166v-146h-78v146zM65 0v70h410v-70h-410z" />
<glyph unicode="&#xb2;" horiz-adv-x="340" d="M169 754q-24 0 -39 -16.5t-19 -35.5l-69 18q14 39 46.5 64.5t86.5 25.5q25 0 47.5 -6.5t39.5 -20.5t27.5 -36t10.5 -53q0 -38 -25.5 -70.5t-57.5 -64.5l-79 -79h160v-60h-251v60l132 134q16 16 30.5 37.5t14.5 45.5q0 21 -12 39t-43 18z" />
<glyph unicode="&#xb3;" horiz-adv-x="340" d="M167 469q31 0 45.5 18.5t14.5 48.5q0 37 -20 48t-47 11h-13v51h18q22 0 37 14.5t15 43.5q0 20 -14 35t-39 15q-24 0 -39 -14.5t-20 -38.5l-66 20q16 45 50.5 67t81.5 22q21 0 42.5 -6t38.5 -19t27.5 -33t10.5 -47q0 -26 -15 -48t-46 -32q14 -3 27.5 -10t24 -18 t16.5 -27.5t6 -38.5q0 -28 -10.5 -50t-29 -37t-43 -22.5t-52.5 -7.5q-27 0 -49 8t-38.5 20.5t-27 28.5t-14.5 32l68 20q4 -20 18.5 -37t41.5 -17z" />
<glyph unicode="&#xb4;" horiz-adv-x="270" d="M165 755l55 -69l-166 -98l-34 43z" />
<glyph unicode="&#xb5;" horiz-adv-x="536" d="M80 -180v720h80v-360q0 -38 7.5 -62t21 -38t32 -19.5t40.5 -5.5q37 0 64.5 21t50.5 62v402h80v-540h-70l-4 62q-21 -35 -52.5 -53.5t-71.5 -18.5q-28 0 -54.5 10t-43.5 30v-210h-80z" />
<glyph unicode="&#xb6;" horiz-adv-x="550" d="M211 -170v545q-19 0 -44.5 3.5t-48.5 19.5t-39 48.5t-16 90.5q0 55 16 87t39 49t48.5 22t44.5 5h76v-870h-76zM450 700v-870h-76v870h76z" />
<glyph unicode="&#xb7;" horiz-adv-x="315" d="M107 273v100h100v-100h-100z" />
<glyph unicode="&#xb8;" horiz-adv-x="279" d="M249 -142q0 -44 -33 -71.5t-84 -27.5q-29 0 -53.5 6.5t-43.5 17.5l25 49q11 -5 27.5 -9.5t31.5 -4.5q23 0 40 9t17 35q0 23 -24.5 33.5t-61.5 15.5l20 109h65l-5 -71q42 -9 60.5 -34t18.5 -57z" />
<glyph unicode="&#xb9;" horiz-adv-x="340" d="M54 420v61h90v249l-75 -44l-30 53l101 61h75v-319h74v-61h-235z" />
<glyph unicode="&#xba;" horiz-adv-x="475" d="M70 521q0 59 14 100t37 66.5t53.5 36.5t63.5 11t63 -11t53.5 -36.5t37 -66.5t13.5 -100t-13.5 -99.5t-36.5 -65t-53.5 -35t-63.5 -10.5t-63.5 10.5t-54 35t-37 65t-13.5 99.5zM150 521q0 -81 25.5 -117.5t63.5 -36.5t62.5 36.5t24.5 117.5t-24.5 119t-63.5 38t-63.5 -38 t-24.5 -119zM87 0v70h303v-70h-303z" />
<glyph unicode="&#xbb;" horiz-adv-x="490" d="M323 101l-54 20l72 202l-82 188l54 20l117 -205zM144 101l-54 20l72 202l-82 188l54 20l117 -205z" />
<glyph unicode="&#xbc;" horiz-adv-x="840" d="M707 240v-111h56v-58h-56v-71h-66v71h-147v62l92 256l60 -18l-85 -242h82v48l11 63h53zM243 -99l-64 29l447 880l64 -29zM79 320v61h90v249l-75 -44l-30 53l101 61h75v-319h74v-61h-235z" />
<glyph unicode="&#xbd;" horiz-adv-x="840" d="M243 -99l-64 29l447 880l64 -29zM639 334q-24 0 -39 -16.5t-19 -35.5l-69 18q14 39 46.5 64.5t86.5 25.5q25 0 47.5 -6.5t39.5 -20.5t27.5 -36t10.5 -53q0 -38 -25.5 -70.5t-57.5 -64.5l-79 -79h160v-60h-251v60l132 134q16 16 30.5 37.5t14.5 45.5q0 21 -12 39t-43 18z M72 320v61h90v249l-75 -44l-30 53l101 61h75v-319h74v-61h-235z" />
<glyph unicode="&#xbe;" horiz-adv-x="840" d="M707 240v-111h56v-58h-56v-71h-66v71h-147v62l92 256l60 -18l-85 -242h82v48l11 63h53zM243 -99l-64 29l447 880l64 -29zM205 369q31 0 45.5 18.5t14.5 48.5q0 37 -20 48t-47 11h-13v51h18q22 0 37 14.5t15 43.5q0 20 -14 35t-39 15q-24 0 -39 -14.5t-20 -38.5l-66 20 q16 45 50.5 67t81.5 22q21 0 42.5 -6t38.5 -19t27.5 -33t10.5 -47q0 -26 -15 -48t-46 -32q14 -3 27.5 -10t24 -18t16.5 -27.5t6 -38.5q0 -28 -10.5 -50t-29 -37t-43 -22.5t-52.5 -7.5q-27 0 -49 8t-38.5 20.5t-27 28.5t-14.5 32l68 20q4 -20 18.5 -37t41.5 -17z" />
<glyph unicode="&#xbf;" horiz-adv-x="484" d="M427 -54q-20 -69 -71.5 -105t-122.5 -36q-81 0 -128.5 43t-47.5 118q0 52 21 90t49 68l72 80v116h82v-139l-92 -100q-29 -31 -39 -58t-10 -59q0 -18 5.5 -35t17 -30t30 -21t44.5 -8q48 0 75 28t38 68zM290 540v-105h-105v105h105z" />
<glyph unicode="&#xc0;" horiz-adv-x="553" d="M453 0l-53 193h-252l-54 -193h-84l215 720h104l214 -720h-90zM167 258h215l-106 384zM330 802l-24 -44l-175 78l43 69z" />
<glyph unicode="&#xc1;" horiz-adv-x="553" d="M453 0l-53 193h-252l-54 -193h-84l215 720h104l214 -720h-90zM167 258h215l-106 384zM380 905l43 -69l-175 -78l-24 44z" />
<glyph unicode="&#xc2;" horiz-adv-x="553" d="M453 0l-53 193h-252l-54 -193h-84l215 720h104l214 -720h-90zM167 258h215l-106 384zM154 756l-36 48l122 91h72l122 -91l-36 -48l-122 70z" />
<glyph unicode="&#xc3;" horiz-adv-x="553" d="M453 0l-53 193h-252l-54 -193h-84l215 720h104l214 -720h-90zM167 258h215l-106 384zM216 814q-20 0 -32.5 -7t-26.5 -18l-34 48q18 19 44.5 32t52.5 13q24 0 39.5 -5.5t27.5 -11.5t24 -11.5t29 -5.5q20 0 32.5 7t26.5 18l34 -48q-18 -19 -44.5 -32t-52.5 -13 q-24 0 -39.5 5.5t-27.5 11.5t-24 11.5t-29 5.5z" />
<glyph unicode="&#xc4;" horiz-adv-x="553" d="M453 0l-53 193h-252l-54 -193h-84l215 720h104l214 -720h-90zM167 258h215l-106 384zM127 785v90h95v-90h-95zM332 785v90h95v-90h-95z" />
<glyph unicode="&#xc5;" horiz-adv-x="553" d="M453 0l-53 193h-252l-54 -193h-84l210 705q-29 13 -48 39t-19 64q0 27 10 48t26.5 36t39 22.5t47.5 7.5t47.5 -7.5t39 -22.5t26.5 -36t10 -48q0 -38 -18.5 -64t-47.5 -39l210 -705h-90zM167 258h215l-106 384zM276 743q25 0 42.5 16.5t17.5 48.5t-17.5 48.5t-42.5 16.5 t-42.5 -16.5t-17.5 -48.5t17.5 -48.5t42.5 -16.5z" />
<glyph unicode="&#xc6;" horiz-adv-x="820" d="M760 0h-303l-41 193h-253l-69 -193h-84l275 720h440v-65h-328l58 -258h265v-64h-251l59 -268h232v-65zM187 258h215l-79 376z" />
<glyph unicode="&#xc7;" horiz-adv-x="582" d="M428 -142q0 -44 -33 -71.5t-84 -27.5q-29 0 -53.5 6.5t-43.5 17.5l25 49q11 -5 27.5 -9.5t31.5 -4.5q23 0 40 9t17 35q0 23 -24.5 33.5t-61.5 15.5l14 78q-38 6 -75.5 27.5t-68.5 64.5t-50 111t-19 168q0 112 24 185t61.5 115t82.5 58.5t88 16.5q39 0 70.5 -10 t55.5 -26.5t41.5 -38.5t28.5 -46l-75 -29q-16 41 -44.5 62t-76.5 21q-34 0 -64.5 -14.5t-53.5 -50t-36.5 -94.5t-13.5 -149q0 -89 14 -148t37.5 -94t54 -50t63.5 -15q55 0 84 27.5t47 69.5l73 -31q-26 -55 -69 -90.5t-111 -42.5l-2 -37q42 -9 60.5 -34t18.5 -57z" />
<glyph unicode="&#xc8;" horiz-adv-x="500" d="M410 333h-235v-265h265v-68h-350v720h350v-68h-265v-253h235v-66zM318 802l-24 -44l-175 78l43 69z" />
<glyph unicode="&#xc9;" horiz-adv-x="500" d="M410 333h-235v-265h265v-68h-350v720h350v-68h-265v-253h235v-66zM362 908l43 -69l-175 -78l-24 44z" />
<glyph unicode="&#xca;" horiz-adv-x="500" d="M410 333h-235v-265h265v-68h-350v720h350v-68h-265v-253h235v-66zM144 756l-36 48l122 91h72l122 -91l-36 -48l-122 70z" />
<glyph unicode="&#xcb;" horiz-adv-x="500" d="M410 333h-235v-265h265v-68h-350v720h350v-68h-265v-253h235v-66zM116 785v90h95v-90h-95zM321 785v90h95v-90h-95z" />
<glyph unicode="&#xcc;" horiz-adv-x="265" d="M175 720v-720h-85v720h85zM196 802l-24 -44l-175 78l43 69z" />
<glyph unicode="&#xcd;" horiz-adv-x="265" d="M175 720v-720h-85v720h85zM227 905l43 -69l-175 -78l-24 44z" />
<glyph unicode="&#xce;" horiz-adv-x="265" d="M175 720v-720h-85v720h85zM11 756l-36 48l122 91h72l122 -91l-36 -48l-122 70z" />
<glyph unicode="&#xcf;" horiz-adv-x="265" d="M175 720v-720h-85v720h85zM-16 785v90h95v-90h-95zM189 785v90h95v-90h-95z" />
<glyph unicode="&#xd0;" horiz-adv-x="621" d="M30 416h70v304h128q71 0 130.5 -16.5t102 -57.5t66.5 -110.5t24 -175.5q0 -103 -23.5 -172t-66.5 -111t-102 -59.5t-129 -17.5h-130v351h-70v65zM185 657v-241h184v-65h-184v-285h44q61 0 105.5 15.5t73.5 50.5t43 91t14 137q0 155 -57 226t-181 71h-42z" />
<glyph unicode="&#xd1;" horiz-adv-x="601" d="M511 720v-720h-110l-234 608v-608h-77v720h113l233 -599v599h75zM242 818q-20 0 -32.5 -7t-26.5 -18l-34 48q18 19 44.5 32t52.5 13q24 0 39.5 -5.5t27.5 -11.5t24 -11.5t29 -5.5q20 0 32.5 7t26.5 18l34 -48q-18 -19 -44.5 -32t-52.5 -13q-24 0 -39.5 5.5t-27.5 11.5 t-24 11.5t-29 5.5z" />
<glyph unicode="&#xd2;" horiz-adv-x="658" d="M70 360q0 105 22 176.5t58 115.5t82.5 63.5t96.5 19.5t96.5 -19.5t82.5 -63.5t58 -115.5t22 -176.5t-22 -176.5t-58 -115.5t-83 -63.5t-96 -19.5q-50 0 -96.5 19.5t-82.5 63.5t-58 115.5t-22 176.5zM157 360q0 -152 43 -231t129 -79t129 79t43 231t-43 231t-129 79 t-129 -79t-43 -231zM372 802l-24 -44l-175 78l43 69z" />
<glyph unicode="&#xd3;" horiz-adv-x="658" d="M70 360q0 105 22 176.5t58 115.5t82.5 63.5t96.5 19.5t96.5 -19.5t82.5 -63.5t58 -115.5t22 -176.5t-22 -176.5t-58 -115.5t-83 -63.5t-96 -19.5q-50 0 -96.5 19.5t-82.5 63.5t-58 115.5t-22 176.5zM157 360q0 -152 43 -231t129 -79t129 79t43 231t-43 231t-129 79 t-129 -79t-43 -231zM441 905l43 -69l-175 -78l-24 44z" />
<glyph unicode="&#xd4;" horiz-adv-x="658" d="M70 360q0 105 22 176.5t58 115.5t82.5 63.5t96.5 19.5t96.5 -19.5t82.5 -63.5t58 -115.5t22 -176.5t-22 -176.5t-58 -115.5t-83 -63.5t-96 -19.5q-50 0 -96.5 19.5t-82.5 63.5t-58 115.5t-22 176.5zM157 360q0 -152 43 -231t129 -79t129 79t43 231t-43 231t-129 79 t-129 -79t-43 -231zM207 756l-36 48l122 91h72l122 -91l-36 -48l-122 70z" />
<glyph unicode="&#xd5;" horiz-adv-x="658" d="M70 360q0 105 22 176.5t58 115.5t82.5 63.5t96.5 19.5t96.5 -19.5t82.5 -63.5t58 -115.5t22 -176.5t-22 -176.5t-58 -115.5t-83 -63.5t-96 -19.5q-50 0 -96.5 19.5t-82.5 63.5t-58 115.5t-22 176.5zM157 360q0 -152 43 -231t129 -79t129 79t43 231t-43 231t-129 79 t-129 -79t-43 -231zM266 816q-20 0 -32.5 -7t-26.5 -18l-34 48q18 19 44.5 32t52.5 13q24 0 39.5 -5.5t27.5 -11.5t24 -11.5t29 -5.5q20 0 32.5 7t26.5 18l34 -48q-18 -19 -44.5 -32t-52.5 -13q-24 0 -39.5 5.5t-27.5 11.5t-24 11.5t-29 5.5z" />
<glyph unicode="&#xd6;" horiz-adv-x="658" d="M70 360q0 105 22 176.5t58 115.5t82.5 63.5t96.5 19.5t96.5 -19.5t82.5 -63.5t58 -115.5t22 -176.5t-22 -176.5t-58 -115.5t-83 -63.5t-96 -19.5q-50 0 -96.5 19.5t-82.5 63.5t-58 115.5t-22 176.5zM157 360q0 -152 43 -231t129 -79t129 79t43 231t-43 231t-129 79 t-129 -79t-43 -231zM178 785v90h95v-90h-95zM383 785v90h95v-90h-95z" />
<glyph unicode="&#xd7;" d="M270 267l-136 -136l-54 54l136 136l-136 136l54 54l136 -136l136 136l54 -54l-136 -136l136 -136l-54 -54z" />
<glyph unicode="&#xd8;" horiz-adv-x="658" d="M70 360q0 105 22 176.5t58 115.5t82.5 63.5t96.5 19.5q25 0 49.5 -4.5t47.5 -15.5l42 111l63 -20l-48 -128q47 -42 76 -119t29 -199q0 -105 -22 -176.5t-58 -115.5t-83 -63.5t-96 -19.5q-51 0 -96 19l-41 -112l-63 20l47 128q-47 42 -76.5 119.5t-29.5 200.5zM157 360 q0 -169 52 -246l194 536q-32 20 -74 20q-86 0 -129 -79t-43 -231zM501 360q0 164 -52 244l-195 -534q34 -20 75 -20q86 0 129 79t43 231z" />
<glyph unicode="&#xd9;" horiz-adv-x="609" d="M170 720v-510q0 -75 31 -116t104 -41t105.5 41t32.5 116v510h81v-511q0 -110 -56.5 -167t-162.5 -57t-163 57t-57 167v511h85zM349 802l-24 -44l-175 78l43 69z" />
<glyph unicode="&#xda;" horiz-adv-x="609" d="M170 720v-510q0 -75 31 -116t104 -41t105.5 41t32.5 116v510h81v-511q0 -110 -56.5 -167t-162.5 -57t-163 57t-57 167v511h85zM420 905l43 -69l-175 -78l-24 44z" />
<glyph unicode="&#xdb;" horiz-adv-x="609" d="M170 720v-510q0 -75 31 -116t104 -41t105.5 41t32.5 116v510h81v-511q0 -110 -56.5 -167t-162.5 -57t-163 57t-57 167v511h85zM183 754l-36 48l122 91h72l122 -91l-36 -48l-122 70z" />
<glyph unicode="&#xdc;" horiz-adv-x="609" d="M170 720v-510q0 -75 31 -116t104 -41t105.5 41t32.5 116v510h81v-511q0 -110 -56.5 -167t-162.5 -57t-163 57t-57 167v511h85zM156 785v90h95v-90h-95zM361 785v90h95v-90h-95z" />
<glyph unicode="&#xdd;" horiz-adv-x="512" d="M502 720l-202 -432v-288h-84v288l-206 432h93l157 -344l159 344h83zM384 905l43 -69l-175 -78l-24 44z" />
<glyph unicode="&#xde;" horiz-adv-x="561" d="M175 720v-125h77q55 0 101 -13.5t79 -42t51 -71.5t18 -102t-18.5 -102.5t-51.5 -72t-79 -42.5t-101 -14h-76v-135h-85v720h85zM175 530v-330h75q164 0 164 166q0 78 -39.5 121t-120.5 43h-79z" />
<glyph unicode="&#xdf;" horiz-adv-x="574" d="M529 160q0 -43 -13.5 -75t-37 -53t-54 -31.5t-63.5 -10.5q-57 0 -90.5 18.5t-55.5 44.5l54 50q16 -20 39 -34t53 -14q18 0 34 6.5t28.5 19t20 31.5t7.5 43q0 22 -7 38t-18.5 29t-27 23t-33.5 20q-20 11 -38.5 23.5t-32.5 28.5t-22.5 36t-8.5 46q0 42 17 66.5t38 43.5 t38 38t17 50q0 39 -26.5 63t-74.5 24q-54 0 -83 -36.5t-29 -95.5v-552h-80v533q0 50 14 89.5t39.5 66.5t61 41.5t77.5 14.5q80 0 125 -41.5t45 -111.5q0 -38 -16 -62t-35.5 -42.5t-35.5 -36.5t-16 -42q0 -15 4.5 -26t15 -21t27.5 -20t41 -23q21 -11 39.5 -25.5t32.5 -33.5 t22 -43.5t8 -56.5z" />
<glyph unicode="&#xe0;" horiz-adv-x="506" d="M357 0l-4 60q-22 -30 -57.5 -50t-90.5 -20q-29 0 -58.5 8.5t-53 27t-38.5 47.5t-15 71q0 88 72.5 139t233.5 54v45q0 48 -23.5 79.5t-79.5 31.5q-43 0 -71.5 -21.5t-43.5 -62.5l-73 28q24 54 72 86t118 32q46 0 80 -12.5t56.5 -34t33.5 -51t11 -63.5v-394h-69zM227 54 q38 0 67 17t52 43v160q-115 -2 -169 -32.5t-54 -91.5q0 -51 30.5 -73.5t73.5 -22.5zM314 631l-34 -43l-166 98l55 69z" />
<glyph unicode="&#xe1;" horiz-adv-x="506" d="M357 0l-4 60q-22 -30 -57.5 -50t-90.5 -20q-29 0 -58.5 8.5t-53 27t-38.5 47.5t-15 71q0 88 72.5 139t233.5 54v45q0 48 -23.5 79.5t-79.5 31.5q-43 0 -71.5 -21.5t-43.5 -62.5l-73 28q24 54 72 86t118 32q46 0 80 -12.5t56.5 -34t33.5 -51t11 -63.5v-394h-69zM227 54 q38 0 67 17t52 43v160q-115 -2 -169 -32.5t-54 -91.5q0 -51 30.5 -73.5t73.5 -22.5zM336 755l55 -69l-166 -98l-34 43z" />
<glyph unicode="&#xe2;" horiz-adv-x="506" d="M357 0l-4 60q-22 -30 -57.5 -50t-90.5 -20q-29 0 -58.5 8.5t-53 27t-38.5 47.5t-15 71q0 88 72.5 139t233.5 54v45q0 48 -23.5 79.5t-79.5 31.5q-43 0 -71.5 -21.5t-43.5 -62.5l-73 28q24 54 72 86t118 32q46 0 80 -12.5t56.5 -34t33.5 -51t11 -63.5v-394h-69zM227 54 q38 0 67 17t52 43v160q-115 -2 -169 -32.5t-54 -91.5q0 -51 30.5 -73.5t73.5 -22.5zM127 597l-38 47l122 101h72l122 -101l-38 -47l-120 79z" />
<glyph unicode="&#xe3;" horiz-adv-x="506" d="M357 0l-4 60q-22 -30 -57.5 -50t-90.5 -20q-29 0 -58.5 8.5t-53 27t-38.5 47.5t-15 71q0 88 72.5 139t233.5 54v45q0 48 -23.5 79.5t-79.5 31.5q-43 0 -71.5 -21.5t-43.5 -62.5l-73 28q24 54 72 86t118 32q46 0 80 -12.5t56.5 -34t33.5 -51t11 -63.5v-394h-69zM227 54 q38 0 67 17t52 43v160q-115 -2 -169 -32.5t-54 -91.5q0 -51 30.5 -73.5t73.5 -22.5zM183 658q-20 0 -32.5 -7t-26.5 -18l-34 48q18 19 44.5 32t52.5 13q24 0 39.5 -5.5t27.5 -11.5t24 -11.5t29 -5.5q20 0 32.5 7t26.5 18l34 -48q-18 -19 -44.5 -32t-52.5 -13 q-24 0 -39.5 5.5t-27.5 11.5t-24 11.5t-29 5.5z" />
<glyph unicode="&#xe4;" horiz-adv-x="506" d="M357 0l-4 60q-22 -30 -57.5 -50t-90.5 -20q-29 0 -58.5 8.5t-53 27t-38.5 47.5t-15 71q0 88 72.5 139t233.5 54v45q0 48 -23.5 79.5t-79.5 31.5q-43 0 -71.5 -21.5t-43.5 -62.5l-73 28q24 54 72 86t118 32q46 0 80 -12.5t56.5 -34t33.5 -51t11 -63.5v-394h-69zM227 54 q38 0 67 17t52 43v160q-115 -2 -169 -32.5t-54 -91.5q0 -51 30.5 -73.5t73.5 -22.5zM97 635v90h95v-90h-95zM302 635v90h95v-90h-95z" />
<glyph unicode="&#xe5;" horiz-adv-x="506" d="M357 0l-4 60q-22 -30 -57.5 -50t-90.5 -20q-29 0 -58.5 8.5t-53 27t-38.5 47.5t-15 71q0 88 72.5 139t233.5 54v45q0 48 -23.5 79.5t-79.5 31.5q-43 0 -71.5 -21.5t-43.5 -62.5l-73 28q24 54 72 86t118 32q46 0 80 -12.5t56.5 -34t33.5 -51t11 -63.5v-394h-69zM227 54 q38 0 67 17t52 43v160q-115 -2 -169 -32.5t-54 -91.5q0 -51 30.5 -73.5t73.5 -22.5zM248 631q25 0 42.5 16.5t17.5 48.5t-17.5 48.5t-42.5 16.5t-42.5 -16.5t-17.5 -48.5t17.5 -48.5t42.5 -16.5zM248 582q-25 0 -47.5 7.5t-39 22.5t-26.5 36t-10 48t10 48t26.5 36t39 22.5 t47.5 7.5t47.5 -7.5t39 -22.5t26.5 -36t10 -48t-10 -48t-26.5 -36t-39 -22.5t-47.5 -7.5z" />
<glyph unicode="&#xe6;" horiz-adv-x="809" d="M747 91q-26 -41 -73 -71t-117 -30q-63 0 -107 26.5t-69 83.5q-10 -22 -25.5 -42t-36.5 -35t-48 -24t-61 -9q-33 0 -64 8.5t-54.5 27t-37.5 48t-14 70.5q0 44 17 77.5t53.5 56.5t94.5 35.5t141 13.5v55q0 48 -24 79.5t-81 31.5q-43 0 -70.5 -21.5t-42.5 -62.5l-73 28 q24 54 71 86t119 32q63 0 99 -28t50 -71q27 51 67.5 75t92.5 24q98 0 149 -69.5t51 -222.5h-334q0 -60 11.5 -100t30.5 -64t44.5 -34.5t55.5 -10.5q24 0 43.5 7.5t34.5 18.5t26 24.5t18 25.5zM347 196l-1 1v67q-120 -1 -171.5 -27t-51.5 -87q0 -51 28 -73.5t71 -22.5 q60 0 92 40.5t32 101.5h1zM554 493q-54 0 -88 -39.5t-43 -126.5h248q-4 93 -34 129.5t-83 36.5z" />
<glyph unicode="&#xe7;" horiz-adv-x="509" d="M381 -142q0 -44 -33 -71.5t-84 -27.5q-29 0 -53.5 6.5t-43.5 17.5l25 49q11 -5 27.5 -9.5t31.5 -4.5q23 0 40 9t17 35q0 23 -24.5 33.5t-61.5 15.5l14 81q-37 7 -68.5 26t-55 53t-36.5 83t-13 115q0 74 17 128t47 89t70.5 52t87.5 17q57 0 99 -19.5t78 -67.5l-62 -45 q-26 38 -52.5 53t-62.5 15q-62 0 -100 -53t-38 -167t37 -166t99 -52q43 0 71 20.5t54 63.5l65 -42q-27 -42 -68.5 -71.5t-99.5 -34.5l-3 -40q42 -9 60.5 -34t18.5 -57z" />
<glyph unicode="&#xe8;" horiz-adv-x="534" d="M472 91q-26 -41 -73 -71t-117 -30q-49 0 -89 16.5t-69 50.5t-45 85.5t-16 122.5q0 76 16.5 131t46 90.5t69 52t84.5 16.5q50 0 87.5 -16.5t62.5 -53t37.5 -93.5t12.5 -138h-334q1 -57 12.5 -95.5t30.5 -61.5t44.5 -33t54.5 -10q24 0 43.5 7.5t34.5 18.5t26 24.5t18 25.5z M279 493q-56 0 -90 -42t-42 -133h249q-2 49 -10.5 82.5t-23.5 54t-35.5 29.5t-47.5 9zM342 631l-34 -43l-166 98l55 69z" />
<glyph unicode="&#xe9;" horiz-adv-x="534" d="M472 91q-26 -41 -73 -71t-117 -30q-49 0 -89 16.5t-69 50.5t-45 85.5t-16 122.5q0 76 16.5 131t46 90.5t69 52t84.5 16.5q50 0 87.5 -16.5t62.5 -53t37.5 -93.5t12.5 -138h-334q1 -57 12.5 -95.5t30.5 -61.5t44.5 -33t54.5 -10q24 0 43.5 7.5t34.5 18.5t26 24.5t18 25.5z M279 493q-56 0 -90 -42t-42 -133h249q-2 49 -10.5 82.5t-23.5 54t-35.5 29.5t-47.5 9zM354 755l55 -69l-166 -98l-34 43z" />
<glyph unicode="&#xea;" horiz-adv-x="534" d="M472 91q-26 -41 -73 -71t-117 -30q-49 0 -89 16.5t-69 50.5t-45 85.5t-16 122.5q0 76 16.5 131t46 90.5t69 52t84.5 16.5q50 0 87.5 -16.5t62.5 -53t37.5 -93.5t12.5 -138h-334q1 -57 12.5 -95.5t30.5 -61.5t44.5 -33t54.5 -10q24 0 43.5 7.5t34.5 18.5t26 24.5t18 25.5z M279 493q-56 0 -90 -42t-42 -133h249q-2 49 -10.5 82.5t-23.5 54t-35.5 29.5t-47.5 9zM157 597l-38 47l122 101h72l122 -101l-38 -47l-120 79z" />
<glyph unicode="&#xeb;" horiz-adv-x="534" d="M472 91q-26 -41 -73 -71t-117 -30q-49 0 -89 16.5t-69 50.5t-45 85.5t-16 122.5q0 76 16.5 131t46 90.5t69 52t84.5 16.5q50 0 87.5 -16.5t62.5 -53t37.5 -93.5t12.5 -138h-334q1 -57 12.5 -95.5t30.5 -61.5t44.5 -33t54.5 -10q24 0 43.5 7.5t34.5 18.5t26 24.5t18 25.5z M279 493q-56 0 -90 -42t-42 -133h249q-2 49 -10.5 82.5t-23.5 54t-35.5 29.5t-47.5 9zM127 635v90h95v-90h-95zM332 635v90h95v-90h-95z" />
<glyph unicode="&#xec;" horiz-adv-x="240" d="M80 0v540h80v-540h-80zM196 631l-34 -43l-166 98l55 69z" />
<glyph unicode="&#xed;" horiz-adv-x="240" d="M80 0v540h80v-540h-80zM190 755l55 -69l-166 -98l-34 43z" />
<glyph unicode="&#xee;" horiz-adv-x="240" d="M1 597l-38 47l122 101h72l122 -101l-38 -47l-120 79zM80 0v540h80v-540h-80z" />
<glyph unicode="&#xef;" horiz-adv-x="240" d="M80 0v540h80v-540h-80zM-29 635v90h95v-90h-95zM176 635v90h95v-90h-95z" />
<glyph unicode="&#xf0;" horiz-adv-x="484" d="M434 345q0 -171 -47 -263t-156 -92q-39 0 -74 14.5t-61 43.5t-41 73.5t-15 104.5q0 48 9.5 92t30.5 78t54 54t79 20q51 0 84.5 -20t54.5 -51q-5 74 -26.5 124t-57.5 84l-68 -71l-52 30l73 76q-29 17 -62.5 29.5t-72.5 23.5l23 60q43 -10 84 -24t77 -37l44 46l52 -30 l-49 -51q54 -48 85.5 -123t31.5 -191zM227 407q-50 0 -78 -45.5t-28 -136.5q0 -48 9.5 -81.5t25.5 -54t36.5 -29.5t41.5 -9q30 0 52.5 16.5t37 52t22 91.5t8.5 134q-23 25 -54.5 43.5t-72.5 18.5z" />
<glyph unicode="&#xf1;" horiz-adv-x="548" d="M80 0v540h68l6 -71q32 47 74.5 66.5t82.5 19.5q35 0 64 -9.5t49.5 -31.5t32 -57.5t11.5 -87.5v-369h-80v354q0 39 -6 65.5t-17.5 42t-29.5 22t-42 6.5q-40 0 -73 -24t-60 -66v-400h-80zM216 654q-20 0 -32.5 -7t-26.5 -18l-34 48q18 19 44.5 32t52.5 13q24 0 39.5 -5.5 t27.5 -11.5t24 -11.5t29 -5.5q20 0 32.5 7t26.5 18l34 -48q-18 -19 -44.5 -32t-52.5 -13q-24 0 -39.5 5.5t-27.5 11.5t-24 11.5t-29 5.5z" />
<glyph unicode="&#xf2;" horiz-adv-x="565" d="M63 270q0 83 19.5 138t51 87.5t71 46t78.5 13.5q38 0 77 -13t70.5 -45.5t51.5 -87.5t20 -139t-19.5 -138t-50.5 -85.5t-70.5 -44t-78.5 -12.5q-38 0 -77.5 12.5t-71 44.5t-51.5 86t-20 137zM147 270q0 -114 37.5 -166t99.5 -52t98.5 51t36.5 167q0 58 -10 100t-28 69.5 t-43 40.5t-55 13q-59 0 -97.5 -54.5t-38.5 -168.5zM349 631l-34 -43l-166 98l55 69z" />
<glyph unicode="&#xf3;" horiz-adv-x="565" d="M63 270q0 83 19.5 138t51 87.5t71 46t78.5 13.5q38 0 77 -13t70.5 -45.5t51.5 -87.5t20 -139t-19.5 -138t-50.5 -85.5t-70.5 -44t-78.5 -12.5q-38 0 -77.5 12.5t-71 44.5t-51.5 86t-20 137zM147 270q0 -114 37.5 -166t99.5 -52t98.5 51t36.5 167q0 58 -10 100t-28 69.5 t-43 40.5t-55 13q-59 0 -97.5 -54.5t-38.5 -168.5zM361 755l55 -69l-166 -98l-34 43z" />
<glyph unicode="&#xf4;" horiz-adv-x="565" d="M63 270q0 83 19.5 138t51 87.5t71 46t78.5 13.5q38 0 77 -13t70.5 -45.5t51.5 -87.5t20 -139t-19.5 -138t-50.5 -85.5t-70.5 -44t-78.5 -12.5q-38 0 -77.5 12.5t-71 44.5t-51.5 86t-20 137zM147 270q0 -114 37.5 -166t99.5 -52t98.5 51t36.5 167q0 58 -10 100t-28 69.5 t-43 40.5t-55 13q-59 0 -97.5 -54.5t-38.5 -168.5zM163 597l-38 47l122 101h72l122 -101l-38 -47l-120 79z" />
<glyph unicode="&#xf5;" horiz-adv-x="565" d="M63 270q0 83 19.5 138t51 87.5t71 46t78.5 13.5q38 0 77 -13t70.5 -45.5t51.5 -87.5t20 -139t-19.5 -138t-50.5 -85.5t-70.5 -44t-78.5 -12.5q-38 0 -77.5 12.5t-71 44.5t-51.5 86t-20 137zM147 270q0 -114 37.5 -166t99.5 -52t98.5 51t36.5 167q0 58 -10 100t-28 69.5 t-43 40.5t-55 13q-59 0 -97.5 -54.5t-38.5 -168.5zM221 656q-20 0 -32.5 -7t-26.5 -18l-34 48q18 19 44.5 32t52.5 13q24 0 39.5 -5.5t27.5 -11.5t24 -11.5t29 -5.5q20 0 32.5 7t26.5 18l34 -48q-18 -19 -44.5 -32t-52.5 -13q-24 0 -39.5 5.5t-27.5 11.5t-24 11.5t-29 5.5z " />
<glyph unicode="&#xf6;" horiz-adv-x="565" d="M63 270q0 83 19.5 138t51 87.5t71 46t78.5 13.5q38 0 77 -13t70.5 -45.5t51.5 -87.5t20 -139t-19.5 -138t-50.5 -85.5t-70.5 -44t-78.5 -12.5q-38 0 -77.5 12.5t-71 44.5t-51.5 86t-20 137zM147 270q0 -114 37.5 -166t99.5 -52t98.5 51t36.5 167q0 58 -10 100t-28 69.5 t-43 40.5t-55 13q-59 0 -97.5 -54.5t-38.5 -168.5zM133 635v90h95v-90h-95zM338 635v90h95v-90h-95z" />
<glyph unicode="&#xf7;" d="M220 51v100h100v-100h-100zM220 489v100h100v-100h-100zM65 288v70h410v-70h-410z" />
<glyph unicode="&#xf8;" horiz-adv-x="565" d="M63 270q0 83 19.5 138t51 87.5t71 46t78.5 13.5q22 0 44.5 -4t44.5 -14l45 96l60 -25l-50 -108q33 -32 54 -87.5t21 -142.5q0 -84 -19.5 -138t-50.5 -85.5t-70.5 -44t-78.5 -12.5q-45 0 -86 16l-50 -108l-59 26l54 116q-35 31 -57 86.5t-22 143.5zM147 270 q0 -102 30 -154l167 360q-28 17 -61 17q-59 0 -97.5 -54.5t-38.5 -168.5zM419 270q0 50 -7.5 87.5t-21.5 64.5l-165 -356q24 -14 59 -14q62 0 98.5 51t36.5 167z" />
<glyph unicode="&#xf9;" horiz-adv-x="536" d="M456 540v-540h-70l-4 64q-23 -35 -58 -54.5t-76 -19.5q-36 0 -67 9.5t-53.5 32t-35 59.5t-12.5 91v358h80v-352q0 -40 7.5 -65.5t20.5 -40.5t31.5 -21t41.5 -6q37 0 64.5 21t50.5 62v402h80zM332 631l-34 -43l-166 98l55 69z" />
<glyph unicode="&#xfa;" horiz-adv-x="536" d="M456 540v-540h-70l-4 64q-23 -35 -58 -54.5t-76 -19.5q-36 0 -67 9.5t-53.5 32t-35 59.5t-12.5 91v358h80v-352q0 -40 7.5 -65.5t20.5 -40.5t31.5 -21t41.5 -6q37 0 64.5 21t50.5 62v402h80zM369 755l55 -69l-166 -98l-34 43z" />
<glyph unicode="&#xfb;" horiz-adv-x="536" d="M456 540v-540h-70l-4 64q-23 -35 -58 -54.5t-76 -19.5q-36 0 -67 9.5t-53.5 32t-35 59.5t-12.5 91v358h80v-352q0 -40 7.5 -65.5t20.5 -40.5t31.5 -21t41.5 -6q37 0 64.5 21t50.5 62v402h80zM147 591l-38 47l122 101h72l122 -101l-38 -47l-120 79z" />
<glyph unicode="&#xfc;" horiz-adv-x="536" d="M456 540v-540h-70l-4 64q-23 -35 -58 -54.5t-76 -19.5q-36 0 -67 9.5t-53.5 32t-35 59.5t-12.5 91v358h80v-352q0 -40 7.5 -65.5t20.5 -40.5t31.5 -21t41.5 -6q37 0 64.5 21t50.5 62v402h80zM118 635v90h95v-90h-95zM323 635v90h95v-90h-95z" />
<glyph unicode="&#xfd;" horiz-adv-x="458" d="M295 -3q-12 -44 -24.5 -78t-29.5 -57t-41 -35.5t-59 -12.5q-23 0 -45.5 7t-36.5 17l28 53q28 -15 52 -15q16 0 27.5 6t20.5 20.5t16.5 38.5t16.5 59h-35l-175 540h84l146 -482l131 482h77zM320 755l55 -69l-166 -98l-34 43z" />
<glyph unicode="&#xfe;" horiz-adv-x="528" d="M80 -180v916h80v-251q26 33 60.5 51.5t76.5 18.5q36 0 67 -14.5t53.5 -46.5t35 -84.5t12.5 -128.5q0 -142 -50 -216.5t-144 -74.5q-35 0 -63 12t-48 33v-215h-80zM278 489q-35 0 -63.5 -19.5t-54.5 -54.5v-317q23 -25 47.5 -36.5t47.5 -11.5q29 0 52 12.5t39.5 40.5 t25.5 73t9 110q0 60 -7 99t-20.5 62t-32.5 32.5t-43 9.5z" />
<glyph unicode="&#xff;" horiz-adv-x="458" d="M295 -3q-12 -44 -24.5 -78t-29.5 -57t-41 -35.5t-59 -12.5q-23 0 -45.5 7t-36.5 17l28 53q28 -15 52 -15q16 0 27.5 6t20.5 20.5t16.5 38.5t16.5 59h-35l-175 540h84l146 -482l131 482h77zM80 635v90h95v-90h-95zM285 635v90h95v-90h-95z" />
<glyph unicode="&#x127;" horiz-adv-x="553" d="M30 675h55v60h80v-60h200v-62h-200v-140q32 44 72.5 63t78.5 19q35 0 64 -10t49.5 -32t32 -58t11.5 -88v-367h-80v354q0 39 -6 65.5t-17.5 42t-29.5 22t-42 6.5q-40 0 -73 -24t-60 -66v-400h-80v613h-55v62z" />
<glyph unicode="&#x128;" horiz-adv-x="265" d="M175 720v-720h-85v720h85zM72 816q-20 0 -32.5 -7t-26.5 -18l-34 48q18 19 44.5 32t52.5 13q24 0 39.5 -5.5t27.5 -11.5t24 -11.5t29 -5.5q20 0 32.5 7t26.5 18l34 -48q-18 -19 -44.5 -32t-52.5 -13q-24 0 -39.5 5.5t-27.5 11.5t-24 11.5t-29 5.5z" />
<glyph unicode="&#x129;" horiz-adv-x="240" d="M80 0v540h80v-540h-80zM59 656q-20 0 -32.5 -7t-26.5 -18l-34 48q18 19 44.5 32t52.5 13q24 0 39.5 -5.5t27.5 -11.5t24 -11.5t29 -5.5q20 0 32.5 7t26.5 18l34 -48q-18 -19 -44.5 -32t-52.5 -13q-24 0 -39.5 5.5t-27.5 11.5t-24 11.5t-29 5.5z" />
<glyph unicode="&#x131;" horiz-adv-x="240" d="M80 0v540h80v-540h-80z" />
<glyph unicode="&#x132;" horiz-adv-x="673" d="M175 720v-720h-85v720h85zM503 720h85v-555q0 -88 -45.5 -133.5t-123.5 -45.5q-55 0 -93 23.5t-56 54.5l65 44q12 -24 34.5 -38t48.5 -14q40 0 62.5 26t22.5 88v550z" />
<glyph unicode="&#x133;" horiz-adv-x="480" d="M74 638v97h92v-97h-92zM80 0v540h80v-540h-80zM196 -108q31 -13 56 -13q35 0 51.5 21.5t16.5 70.5v569h80v-574q0 -31 -8.5 -59t-25 -49t-41.5 -33.5t-59 -12.5q-26 0 -49.5 4t-44.5 14zM314 638v97h92v-97h-92z" />
<glyph unicode="&#x134;" horiz-adv-x="408" d="M238 720h85v-555q0 -88 -45.5 -133.5t-123.5 -45.5q-55 0 -93 23.5t-56 54.5l65 44q12 -24 34.5 -38t48.5 -14q40 0 62.5 26t22.5 88v550zM157 756l-36 48l122 91h72l122 -91l-36 -48l-122 70z" />
<glyph unicode="&#x135;" horiz-adv-x="240" d="M-44 -108q31 -13 56 -13q35 0 51.5 21.5t16.5 70.5v569h80v-574q0 -31 -8.5 -59t-25 -49t-41.5 -33.5t-59 -12.5q-51 0 -94 18zM1 597l-38 47l122 101h72l122 -101l-38 -47l-120 79z" />
<glyph unicode="&#x137;" horiz-adv-x="505" d="M80 0v735h80v-420l198 225h104l-217 -235l250 -305h-102l-233 285v-285h-80zM267 -270h-56l10 120v90h100v-89z" />
<glyph unicode="&#x138;" horiz-adv-x="505" d="M80 0v540h80v-225l198 225h104l-215 -235l248 -305h-100l-235 285v-285h-80z" />
<glyph unicode="&#x13f;" horiz-adv-x="472" d="M175 720v-646h277v-74h-362v720h85zM301 350v97h92v-97h-92z" />
<glyph unicode="&#x140;" horiz-adv-x="333" d="M221 349v97h92v-97h-92zM89 670h-74l10 65h144v-735h-80v670z" />
<glyph unicode="&#x141;" horiz-adv-x="482" d="M185 720v-271l131 79l34 -54l-165 -100v-300h277v-74h-362v323l-51 -29l-29 57l80 47v322h85z" />
<glyph unicode="&#x142;" horiz-adv-x="269" d="M99 316l-48 -31l-36 57l84 55v273h-74l10 65h144v-285l54 36l36 -57l-90 -60v-369h-80v316z" />
<glyph unicode="&#x143;" horiz-adv-x="601" d="M511 720v-720h-110l-234 608v-608h-77v720h113l233 -599v599h75zM418 905l43 -69l-175 -78l-24 44z" />
<glyph unicode="&#x144;" horiz-adv-x="548" d="M80 0v540h68l6 -71q32 47 74.5 66.5t82.5 19.5q35 0 64 -9.5t49.5 -31.5t32 -57.5t11.5 -87.5v-369h-80v354q0 39 -6 65.5t-17.5 42t-29.5 22t-42 6.5q-40 0 -73 -24t-60 -66v-400h-80zM363 755l55 -69l-166 -98l-34 43z" />
<glyph unicode="&#x152;" horiz-adv-x="894" d="M834 0h-420q-41 -15 -85 -15q-50 0 -96.5 19.5t-82.5 63.5t-58 115.5t-22 176.5t22 176.5t58 115.5t82.5 63.5t96.5 19.5q44 0 85 -15h420v-65h-330q34 -41 55 -104t25 -154h220v-64h-220q-3 -96 -24.5 -161t-55.5 -107h330v-65zM157 360q0 -152 43 -231t129 -79t129 79 t43 231t-43 231t-129 79t-129 -79t-43 -231z" />
<glyph unicode="&#x153;" horiz-adv-x="884" d="M63 270q0 83 19.5 138t51 87.5t71 46t78.5 13.5q25 0 50.5 -5.5t48.5 -19t42.5 -35.5t33.5 -55q25 60 68.5 87.5t102.5 27.5q50 0 87.5 -16.5t62.5 -53t37.5 -93.5t12.5 -138h-334q1 -57 13 -95.5t31.5 -61.5t45.5 -33t55 -10q24 0 43 7.5t33.5 18.5t25 24.5t17.5 25.5 l63 -39q-26 -41 -71.5 -71t-115.5 -30q-61 0 -106 27t-71 84q-14 -32 -34 -53.5t-43 -34t-48 -18t-50 -5.5q-38 0 -77.5 12.5t-71 44.5t-51.5 86t-20 137zM147 270q0 -114 37.5 -166t99.5 -52t98.5 51t36.5 167q0 58 -10 100t-28 69.5t-43 40.5t-55 13q-59 0 -97.5 -54.5 t-38.5 -168.5zM629 493q-56 0 -90 -42t-42 -133h249q-2 49 -10.5 82.5t-23.5 54t-35.5 29.5t-47.5 9z" />
<glyph unicode="&#x154;" horiz-adv-x="557" d="M441 0l-161 282h-105v-282h-85v720h150q117 0 183 -53.5t66 -168.5q0 -41 -10 -72.5t-27 -55.5t-40 -41t-49 -28l179 -301h-101zM175 655v-308h67q78 0 119 37.5t41 113.5t-37 116.5t-126 40.5h-64zM388 905l43 -69l-175 -78l-24 44z" />
<glyph unicode="&#x156;" horiz-adv-x="557" d="M441 0l-161 282h-105v-282h-85v720h150q117 0 183 -53.5t66 -168.5q0 -41 -10 -72.5t-27 -55.5t-40 -41t-49 -28l179 -301h-101zM175 655v-308h67q78 0 119 37.5t41 113.5t-37 116.5t-126 40.5h-64zM304 -270h-56l10 120v90h100v-89z" />
<glyph unicode="&#x157;" horiz-adv-x="332" d="M80 0v540h73l3 -76q20 45 51 67t69 22q14 0 24 -1t24 -6l-20 -75q-9 2 -18.5 3.5t-21.5 1.5q-20 0 -35.5 -8.5t-28 -23.5t-22.5 -34.5t-18 -40.5v-369h-80zM119 -270h-56l10 120v90h100v-89z" />
<glyph unicode="&#x158;" horiz-adv-x="557" d="M441 0l-161 282h-105v-282h-85v720h150q117 0 183 -53.5t66 -168.5q0 -41 -10 -72.5t-27 -55.5t-40 -41t-49 -28l179 -301h-101zM175 655v-308h67q78 0 119 37.5t41 113.5t-37 116.5t-126 40.5h-64zM398 903l36 -48l-122 -91h-72l-122 91l36 48l122 -70z" />
<glyph unicode="&#x159;" horiz-adv-x="332" d="M121 0v540h73l3 -76q20 45 51 67t69 22q14 0 24 -1t24 -6l-20 -75q-9 2 -18.5 3.5t-21.5 1.5q-20 0 -35.5 -8.5t-28 -23.5t-22.5 -34.5t-18 -40.5v-369h-80zM358 747l38 -47l-122 -101h-72l-122 101l38 47l120 -79z" />
<glyph unicode="&#x237;" horiz-adv-x="240" d="M-44 -108q31 -13 56 -13q35 0 51.5 21.5t16.5 70.5v569h80v-574q0 -31 -8.5 -59t-25 -49t-41.5 -33.5t-59 -12.5q-51 0 -94 18z" />
<glyph unicode="&#x2c6;" horiz-adv-x="376" d="M68 597l-38 47l122 101h72l122 -101l-38 -47l-120 79z" />
<glyph unicode="&#x2c7;" horiz-adv-x="376" d="M308 747l38 -47l-122 -101h-72l-122 101l38 47l120 -79z" />
<glyph unicode="&#x2da;" horiz-adv-x="295" d="M148 631q25 0 42.5 16.5t17.5 48.5t-17.5 48.5t-42.5 16.5t-42.5 -16.5t-17.5 -48.5t17.5 -48.5t42.5 -16.5zM148 582q-25 0 -47.5 7.5t-39 22.5t-26.5 36t-10 48t10 48t26.5 36t39 22.5t47.5 7.5t47.5 -7.5t39 -22.5t26.5 -36t10 -48t-10 -48t-26.5 -36t-39 -22.5 t-47.5 -7.5z" />
<glyph unicode="&#x2dc;" horiz-adv-x="350" d="M113 656q-20 0 -32.5 -7t-26.5 -18l-34 48q18 19 44.5 32t52.5 13q24 0 39.5 -5.5t27.5 -11.5t24 -11.5t29 -5.5q20 0 32.5 7t26.5 18l34 -48q-18 -19 -44.5 -32t-52.5 -13q-24 0 -39.5 5.5t-27.5 11.5t-24 11.5t-29 5.5z" />
<glyph unicode="&#x307;" horiz-adv-x="1" d="M-92 638v97h92v-97h-92z" />
<glyph unicode="&#x2013;" horiz-adv-x="400" d="M0 287v72h400v-72h-400z" />
<glyph unicode="&#x2014;" horiz-adv-x="600" d="M0 287v72h600v-72h-600z" />
<glyph unicode="&#x2018;" horiz-adv-x="258" d="M159 583v-95h-100v94l75 154h47z" />
<glyph unicode="&#x2019;" horiz-adv-x="258" d="M83 610v95h100v-94l-75 -154h-47z" />
<glyph unicode="&#x201a;" horiz-adv-x="258" d="M83 0v95h100v-94l-75 -154h-47z" />
<glyph unicode="&#x201c;" horiz-adv-x="417" d="M318 583v-95h-100v94l75 154h47zM159 583v-95h-100v94l75 154h47z" />
<glyph unicode="&#x201d;" horiz-adv-x="408" d="M83 610v95h100v-94l-75 -154h-47zM233 610v95h100v-94l-75 -154h-47z" />
<glyph unicode="&#x201e;" horiz-adv-x="408" d="M233 0v95h100v-94l-75 -154h-47zM83 0v95h100v-94l-75 -154h-47z" />
<glyph unicode="&#x2022;" horiz-adv-x="315" d="M80 252v145h155v-145h-155z" />
<glyph unicode="&#x2039;" horiz-adv-x="311" d="M60 326l117 205l54 -20l-82 -188l72 -202l-54 -20z" />
<glyph unicode="&#x203a;" horiz-adv-x="311" d="M144 101l-54 20l72 202l-82 188l54 20l117 -205z" />
<glyph unicode="&#x20ac;" d="M424 389h-234q-1 -11 -1 -23v-44q0 -10 1 -20h213l-15 -60h-194q6 -54 20.5 -90.5t34.5 -59.5t45 -33t52 -10q35 0 60.5 13.5t45.5 37.5l51 -47q-31 -35 -70.5 -51.5t-89.5 -16.5q-32 0 -68 10t-69 38t-58.5 78.5t-34.5 130.5h-88l15 60h69q-1 10 -1 20v44q0 12 1 23h-84 l15 60h74q10 79 33.5 129.5t55.5 80t69.5 40.5t73.5 11q61 0 100 -21t71 -55l-52 -47q-26 31 -52.5 46t-63.5 15q-66 0 -104.5 -48t-50.5 -151h245z" />
<glyph unicode="&#x25fc;" d="M0 540h540v-540h-540v540z" />
<glyph unicode="&#xf6c3;" horiz-adv-x="166" d="M82 -270h-56l10 120v90h100v-89z" />
<glyph horiz-adv-x="274" d="M230 802l-24 -44l-175 78l43 69z" />
<glyph horiz-adv-x="360" d="M30 785v90h95v-90h-95zM235 785v90h95v-90h-95z" />
<glyph horiz-adv-x="274" d="M201 905l43 -69l-175 -78l-24 44z" />
<glyph horiz-adv-x="376" d="M66 756l-36 48l122 91h72l122 -91l-36 -48l-122 70z" />
<glyph horiz-adv-x="376" d="M310 903l36 -48l-122 -91h-72l-122 91l36 48l122 -70z" />
<glyph horiz-adv-x="295" d="M148 743q25 0 42.5 16.5t17.5 48.5t-17.5 48.5t-42.5 16.5t-42.5 -16.5t-17.5 -48.5t17.5 -48.5t42.5 -16.5zM148 694q-25 0 -47.5 7.5t-39 22.5t-26.5 36t-10 48t10 48t26.5 36t39 22.5t47.5 7.5t47.5 -7.5t39 -22.5t26.5 -36t10 -48t-10 -48t-26.5 -36t-39 -22.5 t-47.5 -7.5z" />
<glyph horiz-adv-x="350" d="M113 816q-20 0 -32.5 -7t-26.5 -18l-34 48q18 19 44.5 32t52.5 13q24 0 39.5 -5.5t27.5 -11.5t24 -11.5t29 -5.5q20 0 32.5 7t26.5 18l34 -48q-18 -19 -44.5 -32t-52.5 -13q-24 0 -39.5 5.5t-27.5 11.5t-24 11.5t-29 5.5z" />
<glyph horiz-adv-x="1" d="M-92 788v97h92v-97h-92z" />
<glyph horiz-adv-x="864" d="M144 0v576h288v-288h288v-288h-576zM576 432v144h144v-144h-144z" />
</font>
</defs>
</svg>
